Tum Dena Saath Mera | Luis Carlos de La Lombana | Depeche Mode - Best Of (Greatest Hits) 2006 [FLAC] - Kitlope
Author: upload113 on 7-10-2016, 23:56
http://s2.1pic.org/files/2016/10/07/7f153b807381d032c265.jpg

Justin Cener - T-Shirt Bootcamp Bonuses
WEBRip | English | MP4 + Project files | 1920 x 1080 | AVC ~467 kbps | 20.444 fps
AAC | 42.7 Kbps | 48.0 KHz | 1 channel | 21:55:46 | 6.26 GB
Genre: eLearning Video / Business, Job, Copywriting

Tools, Templates, & Ad Copy: Literally copy and paste my ad copy, product descriptions, ad templates, email copy, email templates, etc. That goes along with the Justin Cener - T-Shirt Bootcamp.
General
Complete name : REPLAY - Start An Automated Shopify Store In 45 Minutes - Wed 7_6_16.mp4
Format : MPEG-4
Format profile : Base Media / Version 2
Codec ID : mp42
File size : 377 MiB
Duration : 1h 41mn
Overall bit rate mode : Variable
Overall bit rate : 517 Kbps
Movie name : REPLAY - Start An Automated Shopify Store In 45 Minutes - Wed 7_6_16
hdvd : 0
stik : 9
cnID : 0

Video
ID : 1
Format : AVC
Format/Info : Advanced Video Codec
Format profile : [email protected]
Format settings, CABAC : Yes
Format settings, ReFrames : 4 frames
Codec ID : avc1
Codec ID/Info : Advanced Video Coding
Duration : 1h 41mn
Bit rate : 467 Kbps
Width : 1 920 pixels
Height : 1 080 pixels
Display aspect ratio : 16:9
Frame rate mode : Constant
Frame rate : 20.444 fps
Color space : YUV
Chroma subsampling : 4:2:0
Bit depth : 8 bits
Scan type : Progressive
Bits/(Pixel*Frame) : 0.011
Stream size : 341 MiB (90%)
Writing library : x264 core 148 r11 3b70645
Encoding settings : cabac=1 / ref=4 / deblock=1:0:0 / analyse=0x3:0x113 / me=umh / subme=8 / psy=1 / psy_rd=1.00:0.00 / mixed_ref=1 / me_range=16 / chroma_me=1 / trellis=1 / 8x8dct=1 / cqm=0 / deadzone=21,11 / fast_pskip=1 / chroma_qp_offset=-2 / threads=34 / lookahead_threads=5 / sliced_threads=0 / nr=0 / decimate=1 / interlaced=0 / bluray_compat=0 / stitchable=1 / constrained_intra=0 / bframes=3 / b_pyramid=2 / b_adapt=2 / b_bias=0 / direct=3 / weightb=1 / open_gop=0 / weightp=2 / keyint=infinite / keyint_min=20 / scenecut=40 / intra_refresh=0 / rc_lookahead=50 / rc=crf / mbtree=1 / crf=20.0 / qcomp=0.60 / qpmin=5 / qpmax=69 / qpstep=4 / vbv_maxrate=4950 / vbv_bufsize=13500 / crf_max=0.0 / nal_hrd=none / filler=0 / ip_ratio=1.40 / aq=1:1.00
Encoded date : UTC 2016-07-11 18:10:04
Tagged date : UTC 2016-07-11 18:10:04
Color primaries : BT.709
Transfer characteristics : BT.709
Matrix coefficients : BT.709

Audio
ID : 2
Format : AAC
Format/Info : Advanced Audio Codec
Format profile : LC
Codec ID : 40
Duration : 1h 41mn
Bit rate mode : Variable
Bit rate : 42.7 Kbps
Channel(s) : 1 channel
Channel positions : Front: C
Sampling rate : 48.0 KHz
Compression mode : Lossy
Delay relative to video : 98ms
Stream size : 31.1 MiB (8%)
Encoded date : UTC 2016-07-11 18:10:04
Tagged date : UTC 2016-07-11 18:10:04

Menu
ID : 3
Codec ID : text
Duration : 1h 41mn
Encoded date : UTC 2016-09-13 09:00:59
Tagged date : UTC 2016-09-13 09:00:59

Screenshots

http://s2.1pic.org/files/2016/10/07/473c4e26fc30881bfa4e.jpg

Download link:


Links are Interchangeable - No Password - Single Extraction

Dear visitor, you are browsing our website as Guest.
We strongly recommend you to register and login to view hidden contents.

Information
Would you like to leave your comment? Please Login to your account to leave comments. Don't have an account? You can create a free account now.
MEMBER PANEL

Register | Forgot Password
OUR NETWORK
ONLINE SUPPORT
ADVERTISING
Link 1
Designed by fanrx.com
Go Daddy Web Hosting! A completely unique experience - only  $1.99 / mo from Go Daddy! - 468x60